🎙️ Не пропустите новые аудиокниги! нажмите здесь и установите расширение
Поддержать проект Комментарии
kirillall а чё никто не оставил своих впечатлений и мнений о книге?
Leha1988 К 100-летию Кима Филби публикуются свежерассекреченные материалы. Была презентация книги в Российской газете. Книга печатается тиражом 5000 экземпляров. 17 декабря ожидается на озоне. Хочу приобрести
DiabolicDentist ага, я бы тоже взял, но такой малый тираж, курам на смех, не успею, видимо.. выложбте плииз кто купит
Skaramusch 1 января - столетний юбилей Кима Филби!
vilon5
Оформление +код
Заголовок
Код:
Найтли Филлип / Knightley Phillip - «Ким Филби - супершпион КГБ» [Саберов Валерий, Мазуро Дмитрий, 2010 г., 96 kbps, MP3]
Оформление
«Ким Филби - супершпион КГБ»- Год выпуска: 2010 г. (1992 - выпуск самого произведения)
Фамилия автора: Найтли / Knightley
Имя автора: Филлип / Phillip
Исполнитель: Саберов Валерий, Мазуро Дмитрий
Цикл/серия: 000 Номер книги: 000
Жанр: Жизнь замечательных людей
Прочитано по изданию: 000 Перевод: 000
Тип издания: нигде не купишь
Оцифровано: 000 Очищено: 000
Категория: аудиокнига
Аудиокодек: MP3
Битрейт: 96 kbps
Вид битрейта: постоянный битрейт (CBR)
Частота дискретизации: 44 kHz
Количество каналов (моно-стерео): Моно
Музыкальное сопровождение: отсутствует
Время звучания: 13:53:28-Описание:Автор, английский журналист, сотрудник лондонской газеты «Санди таймс» Ф. Найтли, объективно пишет о советском разведчике Киме Филби. В книге описываются острые моменты в разведывательной деятельности Филби, который сознательно, исходя из своих убеждений, пошел на сотрудничество с советской разведкой. Показаны способности Филби находить оптимальные решения в сложных, угрожающих его жизни ситуациях. Немало страниц посвящено личной жизни Филби, интересны воспоминания его коллег по работе в штаб-квартирах СИС [Ми - 6, (sis)] и ЦРУ, в резидентуре английской разведки в Стамбуле и Бейруте.-Доп. информация:
Спасибо yuriy12 & sash3000 за предоставленную книгу!-
MediaInfo
Код:
General
Complete name                            : Ким Филби супершпион КГБ (Саберов Валерий Мазуро Дмитрий)\02_03_18.MP3
Format                                   : MPEG Audio
File size                                : 2.05 MiB
Duration                                 : 2mn 58s
Overall bit rate mode                    : Constant
Overall bit rate                         : 96.0 Kbps
Album                                    : Êèì Ôèëáè - ñóïåðøïèîí ÊÃÁ
Album/Performer                          : Ôèëëèï Íàéòëè
Track name                               : Êèì Ôèëáè - ñóïåðøïèîí ÊÃÁ
Performer                                : Ôèëëèï Íàéòëè
Genre                                    : Àóäèîêíèãà
Recorded date                            : 1993
Comment                                  : ×èòàåò: Ñàáåðîâ Âàëåðèé, Ìàçóðî Äìèòðèé
Audio
Format                                   : MPEG Audio
Format version                           : Version 1
Format profile                           : Layer 3
Duration                                 : 2mn 59s
Bit rate mode                            : Constant
Bit rate                                 : 96.0 Kbps
Channel(s)                               : 1 channel
Sampling rate                            : 44.1 KHz
Compression mode                         : Lossy
Stream size                              : 2.05 MiB (100%)
-

код
Код:
[align=center][size=24]«Ким Филби - супершпион КГБ»[/size][/align]
[hr]
[img=right]http://i6.imageban.ru/out/2014/08/27/50ed890de6dacd32b4f4d66a17b19abc.png[/img]
[b]Год выпуска[/b]: 2010 г. [color=gray](1992 - выпуск самого произведения)[/color]
[b]Фамилия автора[/b]: [url=http://www.livelib.ru/author/174853]Найтли / Knightley
[b]Имя автора[/b]: [url=http://www.livelib.ru/author/174853]Филлип / Phillip
[b]Исполнитель[/b]: Саберов Валерий, Мазуро Дмитрий
[color=gray][b]Цикл/серия[/b]: 000   [b]Номер книги[/b]: 000[/color]
[b]Жанр[/b]: Жизнь замечательных людей
[color=gray][b]Прочитано по изданию[/b]: 000   [b]Перевод[/b]: 000[/color]
[b]Тип издания[/b]: нигде не купишь
[color=gray][b]Оцифровано[/b]: 000   [b]Очищено[/b]: 000[/color]
[b]Категория[/b]: аудиокнига
[b]Аудиокодек[/b]: MP3
[b]Битрейт[/b]: 96 kbps
[b]Вид битрейта[/b]: постоянный битрейт (CBR)
[b]Частота дискретизации[/b]: 44 kHz
[b]Количество каналов (моно-стерео)[/b]: Моно
[b]Музыкальное сопровождение[/b]: отсутствует
[b]Время звучания[/b]: 13:53:28
[hr]
[b]Описание[/b]:
[align=justify]Автор, английский журналист, сотрудник лондонской газеты «Санди таймс» Ф. Найтли, объективно пишет о советском разведчике Киме Филби. В книге описываются острые моменты в разведывательной деятельности Филби, который сознательно, исходя из своих убеждений, пошел на сотрудничество с советской разведкой. Показаны способности Филби находить оптимальные решения в сложных, угрожающих его жизни ситуациях. Немало страниц посвящено личной жизни Филби, интересны воспоминания его коллег по работе в штаб-квартирах СИС [b][color=gray][Ми - 6, (sis)][/color][/b] и ЦРУ, в резидентуре английской разведки в Стамбуле и Бейруте.[/align]
[hr]
[b]Доп. информация[/b]:
Спасибо [color=green][b]yuriy12[/b][/color] [color=gray]&[/color] [color=green][b]sash3000[/b][/color] за предоставленную книгу!
[hr]
[spoiler="MediaInfo"][co
de]
General
Complete name                            : Ким Филби супершпион КГБ (Саберов Валерий Мазуро Дмитрий)\02_03_18.MP3
Format                                   : MPEG Audio
File size                                : 2.05 MiB
Duration                                 : 2mn 58s
Overall bit rate mode                    : Constant
Overall bit rate                         : 96.0 Kbps
Album                                    : Êèì Ôèëáè - ñóïåðøïèîí ÊÃÁ
Album/Performer                          : Ôèëëèï Íàéòëè
Track name                               : Êèì Ôèëáè - ñóïåðøïèîí ÊÃÁ
Performer                                : Ôèëëèï Íàéòëè
Genre                                    : Àóäèîêíèãà
Recorded date                            : 1993
Comment                                  : ×èòàåò: Ñàáåðîâ Âàëåðèé, Ìàçóðî Äìèòðèé
Audio
Format                                   : MPEG Audio
Format version                           : Version 1
Format profile                           : Layer 3
Duration                                 : 2mn 59s
Bit rate mode                            : Constant
Bit rate                                 : 96.0 Kbps
Channel(s)                               : 1 channel
Sampling rate                            : 44.1 KHz
Compression mode                         : Lossy
Stream size                              : 2.05 MiB (100%)
[/co
de]
[hr]
[align=center]
[img]http://i6.imageban.ru/out/2014/08/27/9ab92620bcc2c7c1ffcdafb65a8aa7ad.jpg[/img][/align]
[/spoiler]

-
P.S. при BB-коде
Код:
[code] [/code ]
код ломает спойлер,
и поэтому, мне пришлось спец-но, в MediaInfo сделать так [co и de] ,
соедините (И в начале и В конце) [co и de] + [/co и de].
Яидил Очень интересная книга! Читать (или слушать).
Атаман Бурнаш Не знаю в чьей озвучке слушал ,но сама книга написана отлично. Английский журналист постарался отделить эмоции от фактов Вроде предатель для англичанина (хотя на деле он не предавал Королевства,так как СССР завербовали Кима Филби раньше, чем Великобритания), однако, Найтли не позволяет себе никакого оскорбительного отношения к разведчику. Много фактического материала. Слушается увлекательно..Большое спасибо автору, декламоторам.

Аудиокнига Найтли Филлип - Ким Филби - супершпион КГБ


Издательство:
нигде не купишь
Время записи: 13:53:26
Скачать: · RuTracker · загружено 2290 раз
Нажмите, чтобы подписаться на наш telegram
Подборки интересных книг, релизы, новости проекта

Слушать аудиокнигу "Найтли Филлип - Ким Филби - супершпион КГБ " онлайн

Найтли Филлип - Ким Филби - супершпион КГБ  - Knightley Phillip
Автор, английский журналист, сотрудник лондонской газеты «Санди таймс» Ф. Найтли, объективно пишет о советском разведчике Киме Филби. В книге описываются острые моменты в разведывательной деятельности Филби, который сознательно, исходя из своих убеждений, пошел на сотрудничество с советской разведкой. Показаны способности Филби находить оптимальные решения в сложных, угрожающих его жизни ситуациях. Немало страниц посвящено личной жизни Филби, интересны воспоминания его коллег по работе в штаб-квартирах СИС [Ми - 6, (sis)] и ЦРУ, в резидентуре английской разведки в Стамбуле и Бейруте.-Доп. информация:
Спасибо yuriy12 & sash3000 за предоставленную книгу!-

MediaInfo


Код:
General
Complete name                            : Ким Филби супершпион КГБ (Саберов Валерий Мазуро Дмитрий)\02_03_18.MP3
Format                                   : MPEG Audio
File size                                : 2.05 MiB
Duration                                 : 2mn 58s
Overall bit rate mode                    : Constant
Overall bit rate                         : 96.0 Kbps
Album                                    : Êèì Ôèëáè - ñóïåðøïèîí ÊÃÁ
Album/Performer                          : Ôèëëèï Íàéòëè
Track name                               : Êèì Ôèëáè - ñóïåðøïèîí ÊÃÁ
Performer                                : Ôèëëèï Íàéòëè
Genre                                    : Àóäèîêíèãà
Recorded date                            : 1993
Comment                                  : ×èòàåò: Ñàáåðîâ Âàëåðèé, Ìàçóðî ÄìèòðèéAudio
Format                                   : MPEG Audio
Format version                           : Version 1
Format profile                           : Layer 3
Duration                                 : 2mn 59s
Bit rate mode                            : Constant
Bit rate                                 : 96.0 Kbps
Channel(s)                               : 1 channel
Sampling rate                            : 44.1 KHz
Compression mode                         : Lossy
Stream size                              : 2.05 MiB (100%)

-

В прослушанное
В избранное
Другие книги автора «Knightley Phillip» посмотреть все
Найтли Филлип - Ким Филби - супершпион КГБ Саберов Валерий, Мазура Дмитрий 96kb/s
749
2290
0
Автор, английский журналист, сотрудник лондонской газеты «Санди таймс» Ф. Найтли, объективно пишет о советском разведчике Киме Филби. В книге описываются острые моменты в разведывательной деятельности Филби, который сознательно, и Найтли Филлип - Ким Филби - супершпион КГБ
Другие книги чтеца «Саберов Валерий, Мазура Дмитрий» посмотреть все
Соколов Николай - Убийство царской семьи Саберов Валерий, Мазура Дмитрий 96kb/s
569
1458
0
...Мне выпало на долю производить расследование об убийстве Государя Императора Николая II и его семьи. В пределах права я старался сделать все возможное, чтобы найти истину и соблюсти ее для будущих поколений. Я не думал, что мне Соколов Николай - Убийство царской семьи
Найтли Филлип - Ким Филби - супершпион КГБ Саберов Валерий, Мазура Дмитрий 96kb/s
749
2290
0
Автор, английский журналист, сотрудник лондонской газеты «Санди таймс» Ф. Найтли, объективно пишет о советском разведчике Киме Филби. В книге описываются острые моменты в разведывательной деятельности Филби, который сознательно, и Найтли Филлип - Ким Филби - супершпион КГБ
Похожие книги посмотреть все
Бармак Александр - Тебе певцу, тебе герою Федосеев Борис 128kb/s
689
803
0
О герое войны 1812 года воине и поэте Денисе Давыдове. Давыдов Денис Васильевич [16(27).7. 1784, Москва, — 22.4(4.5).1839, деревня Верхняя Маза, ныне Радищевского района Ульяновской обл.], герой Отечественной войны 1812, военный п Бармак Александр - Тебе певцу, тебе герою
Найтли Филлип - Ким Филби - супершпион КГБ Саберов Валерий, Мазура Дмитрий 96kb/s
749
2290
0
Автор, английский журналист, сотрудник лондонской газеты «Санди таймс» Ф. Найтли, объективно пишет о советском разведчике Киме Филби. В книге описываются острые моменты в разведывательной деятельности Филби, который сознательно, и Найтли Филлип - Ким Филби - супершпион КГБ
Акимова Алиса - «Вольтер» (ЖЗЛ) Кирсанов Сергей
814
2159
0
Книга Алисы Акимовой рассматривает основные стороны жизни и деятельности французского писателя, философа и историка Франсуа-Мари Аруэ де Вольтер.Доп. информация: Bремя звучания: 17 часов. Релиз: Все благодарности begemoth + tvk Акимова Алиса - «Вольтер» (ЖЗЛ)
Павленков Флорентий - Хр. Колумб, Д. Ливингстон, Г. М. Стэнли, А. Гумбольдт, Н. Пржевальский Сушков Владимир 128kb/s
813
1609
0
Павленков Флорентий - Хр. Колумб, Д. Ливингстон, Г. М. Стэнли, А. Гумбольдт, Н. Пржевальский
Андерсен Кристофер - Мадонна. Неавторизованная биография Рудник Юрий 128kb/s
823
828
0
Героиня этой книги - американская звезда эстрады и кино, крупнейшая фигура шоу-бизнеса, кумир миллионов, скандально знаменитая и беззаветно обожаемая, секс-бомба №1 и символ независимой женщины, противоречивая и жестоко последоват Андерсен Кристофер - Мадонна. Неавторизованная биография
Карпов Алексей - Владимир Святой Карпунина Наталья 96kb/s
990
906
0
Книга посвящена великому киевскому князю Владимиру Святославичу, Крестителю Руси. В русской истории нет более значимого имени. Владимир Святой, Владимир Великий, в памяти народа - Владимир Красное Солнышко - сами прозвища говорят Карпов Алексей - Владимир Святой